Skip to main content

Furthur Live at Orpheum Theatre on 2011-03-05

by Furthur

Topics Audience, Z-Man


Furthur
Orpheum Theatre
Boston, Massachusetts
3/5/2011


Source: Schoeps CCM4V'S(din)>Lunatec V2>Benchmark AD2K>
Sound Devices 722 (24/48)
FOB/DLFC/KFC/ZFC/AARP Balcony Center, Row A, Seat 201
DSP: Sound Devices 722>Sound Forge 9.0>CD Wave>flac(16)
Recorded By: Z-Man

Disc I: 1st Set:

01. Tuning
02. Born Cross-Eyed >
03. Something >
04. Cassidy >
05. Dire Wolf
06. Loose Lucy >
07. Row Jimmy
08. Tom Thumb Blues
09. One More Saturday Night >
10. Cassidy

Disc II: 2nd Set:

01. Truckin' >
02. New Speedway Boogie >
03. Caution >
04. China-Cat Sunflower >
05. I Know You Rider

Disc III: 2nd Set Con't:

01. Drum Solo >
02. King Solomon's Marbles
03. Standing On The Moon
04. Shakedown Street >
05. Not Fade Away >
06. Not Fade Away (Crowd Version)

Encore:
07. Phil Donor Rap
08. Ripple


Collection Furthur
Band/Artist Furthur
Venue Orpheum Theatre
Location Boston, MA

Source Schoeps CCM4V'S(din)>Lunatec V2>Benchmark AD2K> Sound Devices 722 (24/48) FOB/DLFC/KFC/ZFC/AARP Balcony Center, Row A, Seat 201
Lineage Sound Devices 722>Sound Forge 9.0>CD Wave>flac(16)
Taped by Z-Man
Transferred by Z-Man

Notes

Furthur
Orpheum Theatre
Boston, Massachusetts
3/5/2011

Source: Schoeps CCM4V'S(din)>Lunatec V2>Benchmark AD2K>
Sound Devices 722 (24/48)
FOB/DLFC/KFC/ZFC/AARP Balcony Center, Row A, Seat 201
DSP: Sound Devices 722>Sound Forge 9.0>CD Wave>flac(16)
Recorded By: Z-Man
Uploaded to LMA By: ekoostikal



Shntool

length expanded size cdr WAVE problems fmt ratio filename
1:03.40 11207324 B --- -- ---xx flac 0.3851 furthur2011-03-05d01t01.flac
2:43.09 28774412 B --- -- ---xx flac 0.5049 furthur2011-03-05d01t02.flac
5:05.31 53874956 B --- -- ---xx flac 0.4772 furthur2011-03-05d01t03.flac
11:12.29 118609052 B --- -- ---xx flac 0.4752 furthur2011-03-05d01t04.flac
4:43.09 49942412 B --- -- ---xx flac 0.4761 furthur2011-03-05d01t05.flac
7:43.11 81699116 B --- -- ---xx flac 0.4870 furthur2011-03-05d01t06.flac
13:10.23 139410140 B --- -- ---xx flac 0.4759 furthur2011-03-05d01t07.flac
6:31.63 69120620 B --- -- ---xx flac 0.4776 furthur2011-03-05d01t08.flac
6:00.26 63565196 B --- -- ---xx flac 0.5183 furthur2011-03-05d01t09.flac
6:34.58 69638060 B --- -- ---xx flac 0.4842 furthur2011-03-05d01t10.flac
11:00.43 116525180 B --- -- ---xx flac 0.4822 furthur2011-03-05d02t01.flac
8:24.01 88907996 B --- -- ---xx flac 0.4884 furthur2011-03-05d02t02.flac
13:31.71 143227436 B --- -- ---xx flac 0.4977 furthur2011-03-05d02t03.flac
8:01.60 84989564 B --- -- ---xx flac 0.4886 furthur2011-03-05d02t04.flac
9:01.69 95594732 B --- -- ---xx flac 0.5171 furthur2011-03-05d02t05.flac
1:31.17 16092428 B --- -- ---xx flac 0.3946 furthur2011-03-05d03t01.flac
7:43.22 81724988 B --- -- ---xx flac 0.5238 furthur2011-03-05d03t02.flac
9:55.30 105028604 B --- -- ---xx flac 0.4463 furthur2011-03-05d03t03.flac
12:16.53 129955100 B --- -- ---xx flac 0.5082 furthur2011-03-05d03t04.flac
8:19.73 88195340 B --- -- ---xx flac 0.4821 furthur2011-03-05d03t05.flac
2:30.31 26532956 B --- -- ---xx flac 0.4379 furthur2011-03-05d03t06.flac
2:28.32 26182508 B --- -- ---xx flac 0.4176 furthur2011-03-05d03t07.flac
5:35.18 59136380 B --- -- ---xx flac 0.4330 furthur2011-03-05d03t08.flac
165:08.69 1747934500 B 0.4835 (23 files)

Reviews

Reviewer: takealittletrip - - March 21, 2011
Subject: Saturday night
King Solomons with hot sauce I tell ya.
Good times in an old building, seats were swayin and I was prayin.
Good times indeed.
Reviewer: grizz2 - - March 13, 2011
Subject: Wow
Geez, the boys are sounding better than anything this old head has heard since 1995 ( and in truth, probably longer than that )
Very much lookin' forward to the Patriot Center and Pittsburgh shows. Hope to get that old feeling again.
Reviewer: raff - - March 13, 2011
Subject: Furthur
Such a show. Trying to stay concise, I'll just say that I was taken away as I haven't been in a long time, to the point where that old magic happened. When they came back into Cassidy, I felt like I'd been on another planet for awhile and was returned gently home. I'd completely forgotten where we were. Caution was powerful, even with Weir on vocals, but the highlight for me was King Soloman's Marbles. Jeff was mind-boggling on the keyboard. He had his back to the audience for his solo but the intensity and precision of those frantic riffs gave away his talent and passion. Great night, only surpassed by the next night!
Reviewer: buddymclean@hotmail.com - - March 8, 2011
Subject: Something First time????
First thanks for recording and sharing. Hats off to Zman!

Is this the first time Furthur has played Something?

Or for that matter have GDead, Dead, Other Ones, Phil, Bob ever played Something? I don't think so.

I love the way John K took that very familiar Harrison solo and built it up, taking it to another level while retaining the familiar.
Well done JohnK.
Reviewer: chefry@sbcglobal.net - - March 8, 2011
Subject: Thank you!!
Wow. Another great night. The crowd seemed to be energized and ready for something big. First set was a little mellow for me, especially for a Saturday night. But second set brought back some energy and fun with a great New Speedway Boogie from John, and a always hot and crowd interactive NFA. Fun night. Thank you all!!
Reviewer: Iriecycle1 - - March 7, 2011
Subject: Shake it Down, Shake it Down, Shake it Down Now.
Lovin' this present assemblage of FurthUr. Hoping John can take the music and make it his own as I know Jerry would want him to! We sure do appreciate having him aboard! The disco lyrics towards the end of Shakedown fun and funny! peace
Reviewer: blombekr - - March 7, 2011
Subject: Great quality
The quality on this is fantastic. 5 stars for quality, haven't gotten through the entire show so far, but it's a-cookin halfway through the first set. Thanks!
Reviewer: shorthopper88 - - March 7, 2011
Subject: Great stuff, Z-Man
Another great recording, and uploaded so quickly. Consistently good recordings. Thanks for bringing the music to the masses.
DOWNLOAD OPTIONS
In Collection
Furthur
In Collection
Live Music Archive
Uploaded by
ekoostikal
on 3/6/2011
Views
6,755
Favorites
7
Reviews
8
PEOPLE ALSO FOUND
Furthur
by Furthur
675
1
2
( 2 reviews )
Source: :Beyerdynamic MC930's(Matched Stereo Pair)(DIN)>Canare Cables> Marantz OCM-PMD661 @16/44.1khz
Furthur
by Furthur
2,348
3
0
Source: Schoeps MK22>kwon-NOS>KC5>CMC6>V2>KindKables XLR-mini XLR>744T (HPF 0) 24/48
Furthur
by Furthur
5,068
5
5
( 5 reviews )
Source: Schoeps CCM4V'S(din)>Lunatec V2>Benchmark AD2K> Sound Devices 722 (24/48) OTS/BOB/DFC/KFC/ZFC/AARP OTS, 8' High
Furthur
2,973
7
3
( 3 reviews )
Source: Superlux CM-H8K(omni capsules)> XLR> Edirol UA5 Oade digimod> Optical Cable> Nomad Jukebox 3> Audacity > CD wave editor
Furthur
by Furthur
6,755
7
8
( 8 reviews )
Source: Schoeps CCM4V'S(din)>Lunatec V2>Benchmark AD2K> Sound Devices 722 (24/48) FOB/DLFC/KFC/ZFC/AARP Balcony Center, Row A, Seat 201
Furthur
by Furthur
11,690
7
12
( 12 reviews )
Source: Schoeps CCM4V'S(din)>Lunatec V2>Benchmark AD2K> Sound Devices 722 (24/48) BOB/DFC/KFC/ZFC/AARP Row N, Between Seats 401 & 402, 6 1/2' High
Furthur
by Furthur
4,650
9
5
( 5 reviews )
Source: Nak 100 mic\'s w/cp4 Shotguns > XLR/Rca 1/4\" cables> D5> JB3
Furthur
by Furthur
4,707
14
27
( 27 reviews )
Source: Schoeps CCM4V'S(din)>Lunatec V2>Benchmark AD2K> Sound Devices 722
Furthur
by Furthur
11,753
11
10
( 10 reviews )
Source: Schoeps CCM4V'S(din)>Lunatec V2>Benchmark AD2K> Sound Devices 722 (24/48)
Furthur
by Furthur
7,742
9
22
( 22 reviews )
Source: Milab VM-44 Link -> Lunatec V2 -> Korg MR-1000 (1bit/2.8MHz DSD)